Skip to main content

Camper Van Beethoven Live at Bunratty's on 1990-01-13




Camper Van Chadbourne

Disc 1 (44:33.66)
01. The Shah Sleeps In Lee Harvey's Grave - extreme breakdown jam (Butthole Surfers)
02. Chase The Blues Away (Tim Buckley)
03. Working Girl Blues (Hazel Dickens)
04. Let's Go To Iraq (Country Joe & EC)
05. Evil Filthy Preacher
06. Fayettenam - Voodoo Vengeance
07. Country Music For Good People Like Y'all
08. You Win Again (Hank Williams)

Disc 2 (41:17.42)
09. Are You Experienced? (Not really Jimi's version)
10. Free Bird (Skynyrd)
11. Rake Solo
12. Used Record Pile
13. They Can Make It Rain Bombs
14. (coltrane tune)
15. In Walked Bud (Thelonious Monk)
16. Nat'l Weed Grower's Assoc. (Michael Hurley)
17. Life's A Gas (T Rex) - band intro


Collection CamperVanBeethoven
Band/Artist Camper Van Beethoven
Venue Bunratty's
Location Boston, MA

Source Aiwa CM-70 stereo mic > Sony WM-D6c > Maxell XLII-90 MCAS
Lineage MCAS > Sony WM-D6c > Sony SBM-1 (Oade mod) > Audiomedia III PCI card > Powermac G3/266 > Protools 4.1.1 @44.1kHz > AIFF > Audacity 1.2.6a > xACT 1.64 > FLAC level 8
Taped by Harrison Merims
Transferred by TAS aka morst

Notes

Camper Van Chadbourne

Eugene Chadbourne: guitar, vocals, rake
Jonathan Segel: violin
Victor Krummenacher: bass
Graham Connah: keyboards
Murray Reams: drums
Chris Turner: harmonica
David Doyle: french horn

Master cassette transferred January 2009

on 1-13-2009, I sent a message asking Eugene if it would be OK to post Camper Van Chadbourne shows on archive as CVB sets, and he responded ". . . no problem posting anything on the Camper site"


SHNTOOL:
length expanded size cdr WAVE problems fmt ratio filename
9:54.65 104934524 B --- -- ---xx CamperVanChadbourne1990-01-13d1t01.flac
5:02.31 53345756 B --- -- ---xx CamperVanChadbourne1990-01-13d1t02.flac
4:18.26 45572396 B --- -- ---xx CamperVanChadbourne1990-01-13d1t03.flac
4:24.11 46595516 B --- -- ---xx CamperVanChadbourne1990-01-13d1t04.flac
4:14.20 44852684 B --- -- ---xx CamperVanChadbourne1990-01-13d1t05.flac
9:47.72 103716188 B --- -- ---xx CamperVanChadbourne1990-01-13d1t06.flac
3:11.24 33748892 B --- -- ---xx CamperVanChadbourne1990-01-13d1t07.flac
3:40.42 38906828 B --- -- ---xx CamperVanChadbourne1990-01-13d1t08.flac
1:28.44 15626732 B --- -- ---xx CamperVanChadbourne1990-01-13d2t01.flac
4:06.53 43519100 B --- -- ---xx CamperVanChadbourne1990-01-13d2t02.flac
6:18.15 66714524 B --- -- ---xx CamperVanChadbourne1990-01-13d2t03.flac
4:30.02 47632748 B --- -- ---xx CamperVanChadbourne1990-01-13d2t04.flac
5:18.34 56175212 B --- -- ---xx CamperVanChadbourne1990-01-13d2t05.flac
5:37.34 59526812 B --- -- ---xx CamperVanChadbourne1990-01-13d2t06.flac
3:49.74 40569692 B --- -- ---xx CamperVanChadbourne1990-01-13d2t07.flac
3:59.15 42194924 B --- -- ---xx CamperVanChadbourne1990-01-13d2t08.flac
6:08.71 65082236 B --- -- ---xx CamperVanChadbourne1990-01-13d2t09.flac
85:51.33 908714764 B 0.5445 (17 files)

Reviews

Reviewer: klaang - - January 17, 2009
Subject: Thanx
This is great! Looking forward to the other CVC shows.
DOWNLOAD OPTIONS
Uploaded by
morst
on 1/14/2009
Views
1,439
Favorites
3
Reviews
1
PEOPLE ALSO FOUND
Camper Van Beethoven
by Camper Van Beethoven
410
0
0
Camper Van Beethoven
by Camper Van Beethoven
2,677
0
1
( 1 reviews )
Source: Sony ECM-717 > Sharp Minidisc MD-MT190
Camper Van Beethoven
by Camper Van Beethoven
148
0
0
Source: soundboard > Sony D5 > TDK MA90 cassette master tape
Camper Van Beethoven
by Camper Van Beethoven
9,939
0
1
( 1 reviews )
Source: Sony ECM-717 > Sharp MD-MT190MD
Camper Van Beethoven
by Camper Van Beethoven
348
0
0
Source: audience > Sony WM-D6c > MCAS
Camper Van Beethoven
by Camper Van Beethoven
1,416
1
0
Source: AT822 > D7(line in) > DATM
Camper Van Beethoven
by Camper Van Beethoven
1,883
2
0
Source: B&K 4011-> Lunatec V2-> Benchmark AD2K+ FOB
Camper Van Beethoven
by Camper Van Beethoven
1,215
1
0
Source: Audience recording > WAV
Camper Van Beethoven
by Camper Van Beethoven
1,559
1
0
Source: DPA 4061 > Sony PCM-D50 > WAV @48/24
Camper Van Beethoven
by Camper Van Beethoven
154
2
0
Source: AKG C568EB Hybrid Shotguns @ 48 volts > Monster Studio Grade XLR > Zoom H4: 48khz / 24 bit